The.Bachelor.S25E08.720p.WEB.h264-KOGi

  • Category TV
  • Type HD
  • Language English
  • Total size 1.9 GB
  • Uploaded By prudence25
  • Downloads 653
  • Last checked 12 minutes ago
  • Date uploaded 6 days ago
  • Seeders 179
  • Leechers 6

Infohash : 3511AD2A20EFCF4E5CB7B652591DF80BC8DA1E9A

Duration : 1 h 24 min
Bit rate : 3 135 kb/s
Width : 1 280 pixels
Height : 720 pixels
Display aspect ratio : 16:9
Frame rate mode : Constant
Frame rate : 29.970 (30000/1001) FPS
Color space : YUV
Chroma subsampling : 4:2:0
Bit depth : 8 bits
Scan type : Progressive
Bits/(Pixel*Frame) : 0.114
Stream size : 1.86 GiB (98%)
Language : English
Default : Yes
Forced : No

Audio
ID : 2
Format : AAC LC SBR
Format/Info : Advanced Audio Codec Low Complexity with Spectral Band Replication
Commercial name : HE-AAC
Format settings : Explicit
Codec ID : A_AAC-2
Duration : 1 h 24 min
Bit rate : 64.0 kb/s
Channel(s) : 2 channels
Channel layout : L R
Sampling rate : 48.0 kHz
Frame rate : 23.438 FPS (2048 SPF)
Compression mode : Lossy
Stream size : 38.8 MiB (2%)
Language : English
Default : Yes
Forced : No

Text
ID : 3
Format : UTF-8
Codec ID : S_TEXT/UTF8
Codec ID/Info : UTF-8 Plain Text
Duration : 1 h 24 min
Bit rate : 118 b/s
Count of elements : 2238
Stream size : 73.7 KiB (0%)
Title : English
Language : English
Default : No
Forced : No

Files:

The.Bachelor.S25E08.720p.WEB.h264-KOGi[rarbg]
  • RARBG.txt (0.0 KB)
  • RARBG_DO_NOT_MIRROR.exe (0.1 KB)
  • The.Bachelor.S25E08.720p.WEB.h264-KOGi.mkv (1.9 GB)
  • the.bachelor.s25e08.720p.web.h264-kogi.nfo (4.6 KB)

There are currently no comments. Feel free to leave one :)

Code:

  • http://tracker.trackerfix.com:80/announce
  • udp://9.rarbg.me:2790/announce
  • udp://9.rarbg.to:2910/announce