NCIS.New.Orleans.S07E07.720p.HDTV.x264-SYNCOPY

  • Category TV
  • Type HD
  • Language English
  • Total size 994.0 MB
  • Uploaded By prudence25
  • Downloads 696
  • Last checked 4 weeks ago
  • Date uploaded 1 month ago
  • Seeders 88
  • Leechers 9
70%
January 18, 2021, 4:00 am

NCIS: New Orleans

When a Navy therapist with a high level of security clearance is murdered, Pride and the team discover that she was working around the system to get justice for victims of sexual assault. Meanwhile, Carter's mother confronts him when he refuses to talk to the FBI for a background check on her behalf, and Sebastian starts to form a bond with a key witness who was hit hard by the COVID-19 pandemic.

Infohash : 4301DB095E7B484C77069F541C236173CD04D63D

Code:

Video
ID : 1
Format : AVC
Format/Info : Advanced Video Codec
Format profile : [email protected]
Format settings : CABAC / 5 Ref Frames
Format settings, CABAC : Yes
Format settings, Reference frames : 5 frames
Codec ID : V_MPEG4/ISO/AVC
Duration : 41 min 59 s
Bit rate : 2 923 kb/s
Width : 1 280 pixels
Height : 720 pixels
Display aspect ratio : 16:9
Frame rate mode : Constant
Frame rate : 23.976 (24000/1001) FPS
Color space : YUV
Chroma subsampling : 4:2:0
Bit depth : 8 bits
Scan type : Progressive
Bits/(Pixel*Frame) : 0.132
Stream size : 878 MiB (88%)
Writing library : x264 core 161 r3027 4121277
Encoding settings : cabac=1 / ref=5 / deblock=1:0:0 / analyse=0x3:0x113 / me=hex / subme=8 / psy=1 / psy_rd=1.00:0.00 / mixed_ref=1 / me_range=16 / chroma_me=1 / trellis=2 / 8x8dct=1 / cqm=0 / deadzone=21,11 / fast_pskip=1 / chroma_qp_offset=-2 / threads=22 / lookahead_threads=3 / sliced_threads=0 / nr=0 / decimate=1 / interlaced=0 / bluray_compat=0 / constrained_intra=0 / bframes=3 / b_pyramid=2 / b_adapt=1 / b_bias=0 / direct=3 / weightb=1 / open_gop=0 / weightp=2 / keyint=250 / keyint_min=23 / scenecut=40 / intra_refresh=0 / rc_lookahead=50 / rc=crf / mbtree=1 / crf=18.0 / qcomp=0.60 / qpmin=0 / qpmax=69 / qpstep=4 / ip_ratio=1.40 / aq=1:1.00
Language : English
Default : Yes
Forced : No
Color range : Limited
Matrix coefficients : BT.709

Audio
ID : 2
Format : AC-3
Format/Info : Audio Coding 3
Commercial name : Dolby Digital
Codec ID : A_AC3
Duration : 41 min 59 s
Bit rate mode : Constant
Bit rate : 384 kb/s
Channel(s) : 6 channels
Channel layout : L R C LFE Ls Rs
Sampling rate : 48.0 kHz
Frame rate : 31.250 FPS (1536 SPF)
Compression mode : Lossy
Stream size : 115 MiB (12%)
Service kind : Complete Main
Default : Yes
Forced : No

Files:

NCIS.New.Orleans.S07E07.720p.HDTV.x264-SYNCOPY[rarbg]
  • RARBG.txt (0.0 KB)
  • RARBG_DO_NOT_MIRROR.exe (0.1 KB)
  • ncis.new.orleans.s07e07.720p.hdtv.x264-syncopy.mkv (993.6 MB)
  • ncis.new.orleans.s07e07.720p.hdtv.x264-syncopy.nfo (8.9 KB)
  • ncis.new.orleans.s07e07.720p.hdtv.x264-syncopy_tvm.jpg (387.9 KB)

There are currently no comments. Feel free to leave one :)

Code:

  • http://tracker.trackerfix.com:80/announce
  • udp://9.rarbg.me:2960/announce
  • udp://9.rarbg.to:2770/announce