Chance.S02.WEBRip.x264-ION10

  • Category TV
  • Type SD
  • Language English
  • Total size 4.8 GB
  • Uploaded By prudence25
  • Downloads 472
  • Last checked 4 weeks ago
  • Date uploaded 1 month ago
  • Seeders 34
  • Leechers 12

Infohash : 35E4C7AEB4C335FB708F0CD412D74EDD5E0E6D77








https://www.imdb.com/title/tt5620076/



Code:

Video
ID : 1
Format : AVC
Format/Info : Advanced Video Codec
Format profile : [email protected]
Format settings : CABAC / 5 Ref Frames
Format settings, CABAC : Yes
Format settings, Reference frames : 5 frames
Codec ID : avc1
Codec ID/Info : Advanced Video Coding
Duration : 56 min 12 s
Bit rate : 1 100 kb/s
Width : 720 pixels
Height : 400 pixels
Display aspect ratio : 16:9
Frame rate mode : Constant
Frame rate : 23.976 (24000/1001) FPS
Color space : YUV
Chroma subsampling : 4:2:0
Bit depth : 8 bits
Scan type : Progressive
Bits/(Pixel*Frame) : 0.159
Stream size : 438 MiB (81%)
Title : Chance.S02E10.WEBRip.x264-ION10
Writing library : x264 core 148 r2795M aaa9aa8
Encoding settings : cabac=1 / ref=5 / deblock=1:-1:-1 / analyse=0x3:0x113 / me=umh / subme=9 / psy=1 / psy_rd=1.00:0.15 / mixed_ref=1 / me_range=16 / chroma_me=1 / trellis=2 / 8x8dct=1 / cqm=0 / deadzone=21,11 / fast_pskip=1 / chroma_qp_offset=-3 / threads=24 / lookahead_threads=2 / sliced_threads=0 / nr=0 / decimate=1 / interlaced=0 / bluray_compat=0 / constrained_intra=0 / bframes=3 / b_pyramid=2 / b_adapt=2 / b_bias=0 / direct=3 / weightb=1 / open_gop=0 / weightp=2 / keyint=250 / keyint_min=23 / scenecut=40 / intra_refresh=0 / rc_lookahead=50 / rc=abr / mbtree=1 / bitrate=1100 / ratetol=1.0 / qcomp=0.60 / qpmin=0 / qpmax=69 / qpstep=4 / ip_ratio=1.40 / aq=1:1.00
Encoded date : UTC 2021-01-17 12:56:31
Tagged date : UTC 2021-01-17 12:56:31
Codec configuration box : avcC

Audio
ID : 2
Format : AAC LC
Format/Info : Advanced Audio Codec Low Complexity
Codec ID : mp4a-40-2
Duration : 56 min 12 s
Bit rate mode : Constant
Bit rate : 256 kb/s
Channel(s) : 2 channels
Channel layout : L R
Sampling rate : 48.0 kHz
Frame rate : 46.875 FPS (1024 SPF)
Compression mode : Lossy
Stream size : 103 MiB (19%)
Title : Chance.S02E10.WEBRip.x264-ION10
Language : English
Default : Yes
Alternate group : 1
Encoded date : UTC 2021-01-17 12:56:31
Tagged date : UTC 2021-01-17 12:56:31
















Files:

Chance.S02.WEBRip.x264-ION10
  • Chance.S02E01.WEBRip.x264-ION10.mp4 (435.5 MB)
  • Chance.S02E02.WEBRip.x264-ION10.mp4 (479.9 MB)
  • Chance.S02E03.WEBRip.x264-ION10.mp4 (478.3 MB)
  • Chance.S02E04.WEBRip.x264-ION10.mp4 (503.6 MB)
  • Chance.S02E05.WEBRip.x264-ION10.mp4 (456.5 MB)
  • Chance.S02E06.WEBRip.x264-ION10.mp4 (465.5 MB)
  • Chance.S02E07.WEBRip.x264-ION10.mp4 (498.6 MB)
  • Chance.S02E08.WEBRip.x264-ION10.mp4 (488.9 MB)
  • Chance.S02E09.WEBRip.x264-ION10.mp4 (517.6 MB)
  • Chance.S02E10.WEBRip.x264-ION10.mp4 (543.1 MB)
  • RARBG.txt (0.0 KB)
  • Subs Chance.S02E01.WEBRip.x264-ION10
    • 2_English.srt (67.6 KB)
    Chance.S02E02.WEBRip.x264-ION10
    • 2_English.srt (61.9 KB)
    Chance.S02E03.WEBRip.x264-ION10
    • 2_English.srt (67.8 KB)
    Chance.S02E04.WEBRip.x264-ION10
    • 2_English.srt (71.7 KB)
    Chance.S02E05.WEBRip.x264-ION10
    • 2_English.srt (62.9 KB)
    Chance.S02E06.WEBRip.x264-ION10
    • 2_English.srt (54.5 KB)
    Chance.S02E07.WEBRip.x264-ION10
    • 2_English.srt (70.5 KB)
    Chance.S02E08.WEBRip.x264-ION10
    • 2_English.srt (67.4 KB)
    Chance.S02E09.WEBRip.x264-ION10
    • 2_English.srt (64.9 KB)
    Chance.S02E10.WEBRip.x264-ION10
    • 2_English.srt (76.3 KB)

There are currently no comments. Feel free to leave one :)

Code:

  • http://tracker.trackerfix.com:80/announce
  • udp://9.rarbg.me:2810/announce
  • udp://9.rarbg.to:2800/announce