The.Flight.Attendant.S01E01.In.Case.of.Emergency.1080p.HMAX.WEBRi...

  • Category TV
  • Type HD
  • Language English
  • Total size 2.6 GB
  • Uploaded By prudence25
  • Downloads 1798
  • Last checked 2 hours ago
  • Date uploaded 1 week ago
  • Seeders 317
  • Leechers 14

Infohash : 64B9A088666C94B666CAA7374D2CD62971CE71E5


https://www.imdb.com/title/tt7569576/

Code:

Video
ID : 1
Format : AVC
Format/Info : Advanced Video Codec
Format profile : [email protected]
Format settings : CABAC / 4 Ref Frames
Format settings, CABAC : Yes
Format settings, Reference frames : 4 frames
Codec ID : V_MPEG4/ISO/AVC
Duration : 45 min 52 s
Bit rate mode : Constant
Bit rate : 8 019 kb/s
Width : 1 920 pixels
Height : 1 080 pixels
Display aspect ratio : 16:9
Frame rate mode : Constant
Frame rate : 29.970 (30000/1001) FPS
Color space : YUV
Chroma subsampling : 4:2:0
Bit depth : 8 bits
Scan type : Progressive
Bits/(Pixel*Frame) : 0.129
Stream size : 2.52 GiB (98%)
Default : Yes
Forced : No
Color range : Limited
Color primaries : BT.709
Transfer characteristics : BT.709
Matrix coefficients : BT.709

Audio
ID : 2
Format : AAC LC
Format/Info : Advanced Audio Codec Low Complexity
Codec ID : A_AAC-2
Duration : 45 min 52 s
Bit rate : 128 kb/s
Channel(s) : 2 channels
Channel layout : L R
Sampling rate : 48.0 kHz
Frame rate : 46.875 FPS (1024 SPF)
Compression mode : Lossy
Delay relative to video : 17 ms
Stream size : 42.0 MiB (2%)
Language : English
Default : Yes
Forced : No

Text #1
ID : 3
Format : UTF-8
Codec ID : S_TEXT/UTF8
Codec ID/Info : UTF-8 Plain Text
Duration : 45 min 33 s
Bit rate : 69 b/s
Count of elements : 956
Stream size : 23.1 KiB (0%)
Language : English
Default : No
Forced : No

Text #2
ID : 4
Format : UTF-8
Codec ID : S_TEXT/UTF8
Codec ID/Info : UTF-8 Plain Text
Duration : 45 min 37 s
Bit rate : 73 b/s
Count of elements : 1006
Stream size : 24.6 KiB (0%)
Title : SDH
Language : English
Default : No
Forced : No

Files:

The.Flight.Attendant.S01E01.In.Case.of.Emergency.1080p.HMAX.WEBRip.AAC2.0.H264-NTG[rarbg]
  • RARBG.txt (0.0 KB)
  • RARBG_DO_NOT_MIRROR.exe (0.1 KB)
  • The.Flight.Attendant.S01E01.In.Case.of.Emergency.1080p.HMAX.WEB-DL.AAC2.0.H.264-NTG.mkv (2.6 GB)

There are currently no comments. Feel free to leave one :)

Code:

  • http://tracker.trackerfix.com:80/announce
  • udp://9.rarbg.me:2720/announce
  • udp://9.rarbg.to:2990/announce