Aravinda Sametha Veera Raghava (2018) Hindi Dubbed HDRip x264 AAC...

  • Category Movies
  • Type Dubs/Dual Audio
  • Language Hindi
  • Total size 541.3 MB
  • Uploaded By StathamIN
  • Downloads 2718
  • Last checked 1 hour ago
  • Date uploaded 5 days ago
  • Seeders 54
  • Leechers 3

Infohash : 478A997225F3512C2122B3EB963A93FD128FBF03



Aravinda Sametha Veera Raghava (2018) Hindi Dubbed HDRip x264 AAC 550mb [MechBoy]





..:: MEDIA INFO ::..


Format : Matroska
Format version : Version 4 / Version 2
File size : 541 MiB
Duration : 2 h 41 min
Overall bit rate : 469 kb/s
Encoded date : UTC 2015-04-23 18:48:21
Writing application : mkvmerge v42.0.0 ('Overtime') 64-bit
Writing library : libebml v1.3.10 + libmatroska v1.5.2

Video
ID : 1
Format : AVC
Format/Info : Advanced Video Codec
Format profile : [email protected]
Format settings, CABAC : Yes
Format settings, RefFrames : 5 frames
Codec ID : V_MPEG4/ISO/AVC
Duration : 2 h 41 min
Bit rate : 411 kb/s
Width : 720 pixels
Height : 304 pixels
Display aspect ratio : 2.40:1
Original display aspect ratio : 2.40:1
Frame rate mode : Constant
Frame rate : 25.000 FPS
Color space : YUV
Chroma subsampling : 4:2:0
Bit depth : 8 bits
Scan type : Progressive
Bits/(Pixel*Frame) : 0.075
Stream size : 474 MiB (88%)
Default : Yes
Forced : No

Audio
ID : 2
Format : AAC
Format/Info : Advanced Audio Codec
Format profile : HE-AAC / LC
Codec ID : A_AAC
Duration : 2 h 41 min
Bit rate : 56.0 kb/s
Channel(s) : 2 channels
Channel positions : Front: L R
Sampling rate : 48.0 kHz / 24.0 kHz
Frame rate : 23.438 FPS (1024 SPF)
Compression mode : Lossy
Delay relative to video : -105 ms
Stream size : 64.7 MiB (12%)
Language : Hindi
Default : Yes
Forced : No




..:: SCREENSHOTS ::..












Files:

Aravinda Sametha Veera Raghava (2018) Hindi Dubbed HDRip x264 AAC 550mb [MechBoy]
  • For More ViSiT Us.txt (0.2 KB)
  • Aravinda Sametha Veera Raghava (2018) Hindi Dubbed HDRip x264 AAC 550mb [MechBoy].mkv (541.3 MB)

There are currently no comments. Feel free to leave one :)

Code:

  • udp://tracker.coppersurfer.tk:6969/announce
  • udp://tracker.leechers-paradise.org:6969/announce
  • udp://tracker.cyberia.is:6969/announce
  • udp://9.rarbg.me:2780/announce
  • udp://p4p.arenabg.com:1337/announce
  • udp://explodie.org:6969/announce
  • udp://tracker.opentrackr.org:1337/announce
  • udp://tracker.tiny-vps.com:6969/announce
  • udp://exodus.desync.com:6969/announce
  • udp://tracker.torrent.eu.org:451/announce
  • udp://tracker.moeking.me:6969/announce
  • udp://ipv4.tracker.harry.lu:80/announce
  • udp://open.stealth.si:80/announce
  • udp://9.rarbg.to:2710/announce
  • udp://opentor.org:2710/announce