Friends With Benefits (2011) 1080p BDRip x265 Dual Audio English ...

  • Category Movies
  • Type HD
  • Language English
  • Total size 3.4 GB
  • Uploaded By meguil
  • Downloads 877
  • Last checked 16 hours ago
  • Date uploaded 6 days ago
  • Seeders 57
  • Leechers 22

Friends With Benefits

Comedy

While trying to avoid the clichés of Hollywood romantic comedies, Dylan and Jamie soon discover however that adding the act of sex to their friendship does lead to complications.

Infohash : DC2D8665B76C35B52D7B1F94D7DAF733FE0C98DF


Release Title
Friends With Benefits (2011) 1080p BDRip x265 Dual Audio English 5.1 Hindi 2.0 AC3 - MeGUiL



IMDB Link
https://www.imdb.com/title/tt1632708/

IMDb Rating
6.5/10 (336,881 user)

Screens:
Click to enlarge
















Code:

Media Info
General
Format                                   : Matroska
Format version                           : Version 4
File size                                : 3.36 GiB
Duration                                 : 1 h 49 min 25 sec
Overall bit rate                         : 4 398 kb/s
Movie name                               : Friends With Benefits (2011) 1080p BDRip x265 Dual Audio English 5.1 Hindi 2.0 AC3 - MeGUiL
Encoded date                             : UTC 2020-11-20 16:25:21
Writing application                      : mkvmerge v7.7.0 ('Six Voices') 64bit built on Feb 28 2015 23:39:33
Writing library                          : libebml v1.3.1 + libmatroska v1.4.2

Video
ID                                       : 1
Format                                   : HEVC
Format/Info                              : High Efficiency Video Coding
Format profile                           : [email protected]@Main
Codec ID                                 : V_MPEGH/ISO/HEVC
Duration                                 : 1 h 49 min
Bit rate                                 : 3 724 kb/s
Width                                    : 1 920 pixels
Height                                   : 802 pixels
Display aspect ratio                     : 2.40:1
Frame rate mode                          : Constant
Frame rate                               : 23.976 (24000/1001) FPS
Color space                              : YUV
Chroma subsampling                       : 4:2:0
Bit depth                                : 8 bits
Bits/(Pixel*Frame)                       : 0.101
Stream size                              : 2.85 GiB (85%)
Title                                    : Friends With Benefits (2011) 1080p BDRip x265 Dual Audio English 5.1 Hindi 2.0 AC3 - MeGUiL
Default                                  : Yes
Forced                                   : No
Color range                              : Limited
Color primaries                          : BT.709
Transfer characteristics                 : BT.709
Matrix coefficients                      : BT.709

Audio #1
ID                                       : 2
Format                                   : AC-3
Format/Info                              : Audio Coding 3
Commercial name                          : Dolby Digital
Codec ID                                 : A_AC3
Duration                                 : 1 h 49 min
Bit rate mode                            : Constant
Bit rate                                 : 448 kb/s
Channel(s)                               : 6 channels
Channel layout                           : L R C LFE Ls Rs
Sampling rate                            : 48.0 kHz
Frame rate                               : 31.250 FPS (1536 SPF)
Compression mode                         : Lossy
Delay relative to video                  : -172 ms
Stream size                              : 351 MiB (10%)
Title                                    : English 448 Kbps AC3 5.1 - MeGUiL
Language                                 : English
Service kind                             : Complete Main
Default                                  : Yes
Forced                                   : No

Audio #2
ID                                       : 3
Format                                   : AC-3
Format/Info                              : Audio Coding 3
Commercial name                          : Dolby Digital
Codec ID                                 : A_AC3
Duration                                 : 1 h 49 min
Bit rate mode                            : Constant
Bit rate                                 : 224 kb/s
Channel(s)                               : 2 channels
Channel layout                           : L R
Sampling rate                            : 48.0 kHz
Frame rate                               : 31.250 FPS (1536 SPF)
Compression mode                         : Lossy
Delay relative to video                  : -168 ms
Stream size                              : 175 MiB (5%)
Title                                    : Hindi 224 Kbps AC3 2.0 - MeGUiL
Language                                 : Hindi
Service kind                             : Complete Main
Default                                  : No
Forced                                   : No

Text
ID                                       : 4
Format                                   : UTF-8
Codec ID                                 : S_TEXT/UTF8
Codec ID/Info                            : UTF-8 Plain Text
Duration                                 : 1 h 49 min
Bit rate                                 : 92 b/s
Count of elements                        : 2169
Stream size                              : 74.0 KiB (0%)
Language                                 : English
Default                                  : No
Forced                                   : No

Menu
00:00:00.167                             : :Chapter 1
00:05:23.824                             : :Chapter 2
00:12:34.295                             : :Chapter 3
00:17:42.687                             : :Chapter 4
00:24:20.960                             : :Chapter 5
00:32:57.225                             : :Chapter 6
00:41:28.820                             : :Chapter 7
00:45:45.952                             : :Chapter 8
00:54:45.407                             : :Chapter 9
00:58:58.994                             : :Chapter 10
01:03:57.083                             : :Chapter 11
01:13:44.879                             : :Chapter 12
01:20:59.855                             : :Chapter 13
01:27:09.725                             : :Chapter 14
01:32:09.649                             : :Chapter 15
01:38:30.446                             : :Chapter 16


Greets
1337x And Many More.  ;)

Files:

Friends With Benefits (2011) 1080p BDRip x265 Dual Audio English 5.1 Hindi 2.0 AC3 - MeGUiL
  • Friends With Benefits (2011) 1080p BDRip x265 Dual Audio English 5.1 Hindi 2.0 AC3 - MeGUiL (1).mkv (3.4 GB)
  • Sample.mkv (32.4 MB)
  • Torrent downloaded from 1337x.mx.txt (0.1 KB)
  • Torrent_downloaded_from_Demonoid.is_.txt (0.1 KB)

There are currently no comments. Feel free to leave one :)

Code:

  • udp://tracker.opentrackr.org:1337/announce
  • http://tracker.foreverpirates.co:80/announce
  • udp://46.148.18.250:2710
  • udp://opentor.org:2710
  • udp://exodus.desync.com:6969/announce
  • udp://open.stealth.si:80/announce
  • udp://tracker.cyberia.is:6969/announce
  • http://tracker.dler.org:6969/announce
  • udp://tracker.leechers-paradise.org:6969/announce
  • udp://tracker.moeking.me:6969/announce
  • udp://tracker.tiny-vps.com:6969/announce
  • udp://tracker.torrent.eu.org:451/announce
  • udp://inferno.demonoid.is:3391/announce