Jiu.Jitsu.2020.1080p.WEB-DL.DD5.1.H264-FGT

  • Category Movies
  • Type HD
  • Language English
  • Total size 3.5 GB
  • Uploaded By prudence25
  • Downloads 3367
  • Last checked 59 minutes ago
  • Date uploaded 4 days ago
  • Seeders 1758
  • Leechers 251

Jiu Jitsu

ActionFantasyScience Fiction

An ancient order of expert Jiu Jitsu fighters face fearsome alien invaders in a battle for Earth every six years.

Infohash : F024994964AF89C7EA187E6DC42CB01388243D8C

https://www.imdb.com/title/tt9624766/

Code:

Video
ID : 1
Format : AVC
Format/Info : Advanced Video Codec
Format profile : [email protected]
Format settings : CABAC / 5 Ref Frames
Format settings, CABAC : Yes
Format settings, Reference frames : 5 frames
Codec ID : V_MPEG4/ISO/AVC
Duration : 1 h 42 min
Bit rate : 4 559 kb/s
Width : 1 916 pixels
Height : 800 pixels
Display aspect ratio : 2.40:1
Frame rate mode : Constant
Frame rate : 23.976 (24000/1001) FPS
Color space : YUV
Chroma subsampling : 4:2:0
Bit depth : 8 bits
Scan type : Progressive
Bits/(Pixel*Frame) : 0.124
Stream size : 3.25 GiB (92%)
Title : Jiu.Jitsu.2020.1080p.WEB-DL.DD5.1.H264-FGT
Language : English
Default : Yes
Forced : No
Color range : Limited
Color primaries : BT.709
Transfer characteristics : BT.709
Matrix coefficients : BT.709

Audio
ID : 2
Format : AC-3
Format/Info : Audio Coding 3
Commercial name : Dolby Digital
Codec ID : A_AC3
Duration : 1 h 42 min
Bit rate mode : Constant
Bit rate : 384 kb/s
Channel(s) : 6 channels
Channel layout : L R C LFE Ls Rs
Sampling rate : 48.0 kHz
Frame rate : 31.250 FPS (1536 SPF)
Compression mode : Lossy
Stream size : 280 MiB (8%)
Title : Jiu.Jitsu.2020.1080p.WEB-DL.DD5.1.H264-FGT
Language : English
Service kind : Complete Main
Default : Yes
Forced : No

Files:

Jiu.Jitsu.2020.1080p.WEB-DL.DD5.1.H264-FGT
  • Jiu.Jitsu.2020.1080p.WEB-DL.DD5.1.H264-FGT.mkv (3.5 GB)
  • RARBG.txt (0.0 KB)

Comments

Code:

  • http://tracker.trackerfix.com:80/announce
  • udp://9.rarbg.me:2770/announce
  • udp://9.rarbg.to:2950/announce