Tomiris principessa guerriera (2019) ITA-KAZ Ac3 5.1 BDRip 1080p ...

  • Category Movies
  • Type HD
  • Language Italian
  • Total size 5.2 GB
  • Uploaded By ArMor
  • Downloads 32
  • Last checked 1 hour ago
  • Date uploaded 2 days ago
  • Seeders 17
  • Leechers 4

The Legend of Tomiris

DramaHistory

This is the story of the life of the great queen of of the steppe - legendary Tomiris. She is destined to become a skillful warrior, survive the loss of close people and unite the Scythian/Saka tribes under her authority.

Infohash : 1595DD86CC0AB12C0199A348179A5957A0F174DB








REGIA Akan Satayev
CAST Almira Tursyn, Gassan Masshoud
GENERE Drammatico
PRODUZIONE Kazakistan 2019
TITOLO DISTRIBUITO PER Blue Swan
Durata 156'



Questa è la storia della vita della grande regina della steppa, il leggendario Tomiris. È destinata a diventare un'abile guerriera, sopravvivere alla perdita di persone vicine e unire le tribù Sciti / Saka sotto la sua autorità.

This is the story of the life of the great queen of of the steppe - legendary Tomiris. She is destined to become a skillful warrior, survive the loss of close people and unite the Scythian/Saka tribes under her authority.












General
Unique ID : 214967929548319890128489796000090551160 (0xA1B95137F39B5833A93AAE4E1F0DF378)
Complete name : Tomiris principessa guerriera (2019) ITA-KAZ Ac3 5.1 BDRip 1080p H264 [ArMor].mkv
Format : Matroska
Format version : Version 4
File size : 5.23 GiB
Duration : 2 h 28 min
Overall bit rate : 5 034 kb/s
Encoded date : UTC 2020-10-17 05:57:49
Writing application : mkvmerge v15.0.0 ('Duel with the Devil') 64-bit
Writing library : libebml v1.3.5 + libmatroska v1.4.5 / Lavf58.29.100

Video
ID : 1
Format : AVC
Format/Info : Advanced Video Codec
Format profile : [email protected]
Format settings : CABAC / 4 Ref Frames
Format settings, CABAC : Yes
Format settings, Reference frames : 4 frames
Codec ID : V_MPEG4/ISO/AVC
Duration : 2 h 28 min
Bit rate : 4 135 kb/s
Width : 1 920 pixels
Height : 800 pixels
Display aspect ratio : 2.40:1
Frame rate mode : Constant
Frame rate : 25.000 FPS
Color space : YUV
Chroma subsampling : 4:2:0
Bit depth : 8 bits
Scan type : Progressive
Bits/(Pixel*Frame) : 0.108
Stream size : 4.30 GiB (82%)
Writing library : x264 core 157 r2935 545de2f
Encoding settings : cabac=1 / ref=2 / deblock=1:0:0 / analyse=0x1:0x111 / me=hex / subme=6 / psy=1 / psy_rd=1.00:0.00 / mixed_ref=1 / me_range=16 / chroma_me=1 / trellis=1 / 8x8dct=0 / cqm=0 / deadzone=21,11 / fast_pskip=1 / chroma_qp_offset=-2 / threads=18 / lookahead_threads=3 / sliced_threads=0 / nr=0 / decimate=1 / interlaced=0 / bluray_compat=0 / constrained_intra=0 / bframes=3 / b_pyramid=2 / b_adapt=1 / b_bias=0 / direct=1 / weightb=1 / open_gop=0 / weightp=1 / keyint=250 / keyint_min=25 / scenecut=40 / intra_refresh=0 / rc_lookahead=30 / rc=crf / mbtree=1 / crf=21.0 / qcomp=0.60 / qpmin=0 / qpmax=69 / qpstep=4 / vbv_maxrate=20000 / vbv_bufsize=25000 / crf_max=0.0 / nal_hrd=none / filler=0 / ip_ratio=1.40 / aq=1:1.00
Default : Yes
Forced : No
Color range : Limited
Color primaries : BT.709
Transfer characteristics : BT.709
Matrix coefficients : BT.709

Audio #1
ID : 2
Format : AC-3
Format/Info : Audio Coding 3
Commercial name : Dolby Digital
Codec ID : A_AC3
Duration : 2 h 28 min
Bit rate mode : Constant
Bit rate : 448 kb/s
Channel(s) : 6 channels
Channel layout : L R C LFE Ls Rs
Sampling rate : 48.0 kHz
Frame rate : 31.250 FPS (1536 SPF)
Compression mode : Lossy
Stream size : 477 MiB (9%)
Title : DTS
Language : Italian
Service kind : Complete Main
Default : Yes
Forced : No

Audio #2
ID : 3
Format : AC-3
Format/Info : Audio Coding 3
Commercial name : Dolby Digital
Codec ID : A_AC3
Duration : 2 h 28 min
Bit rate mode : Constant
Bit rate : 448 kb/s
Channel(s) : 6 channels
Channel layout : L R C LFE Ls Rs
Sampling rate : 48.0 kHz
Frame rate : 31.250 FPS (1536 SPF)
Compression mode : Lossy
Stream size : 477 MiB (9%)
Title : DTS
Language : Kazakh
Service kind : Complete Main
Default : No
Forced : No


Files:

Tomiris principessa guerriera (2019) ITA-KAZ Ac3 5.1 BDRip 1080p H264 [ArMor]
  • Tomiris principessa guerriera (2019) ITA-KAZ Ac3 5.1 BDRip 1080p H264 [ArMor].mkv (5.2 GB)
  • Tomiris.Principessa.guerriera.2019.ITA-KAZ.Bluray.1080p_ita.srt (97.6 KB)
  • w4uw6457ikyujtydhxf.jpg (106.7 KB)

There are currently no comments. Feel free to leave one :)

Code:

  • udp://tracker.coppersurfer.tk:6969/announce
  • udp://tracker.opentrackr.org:1337/announce
  • udp://tracker.leechers-paradise.org:6969/announce
  • udp://tracker.zer0day.to:1337/announce
  • udp://eddie4.nl:6969/announce
  • udp://9.rarbg.me:2790/announce
  • udp://9.rarbg.to:2730/announce
  • udp://9.rarbg.com:2710/announce
  • udp://tracker.pirateparty.gr:6969/announce
  • udp://p4p.arenabg.com:1337/announce
  • http://ipv4.tracker.harry.lu/announce
  • http://ipv4.tracker.harry.lu:80/announce
  • http://t.nyaatracker.com/announce
  • http://t.nyaatracker.com:80/announce
  • http://tracker.torrentyorg.pl:80/announce